Poster Boys (2017) - 1CD - DesiPreDVD-Rip - Hindi - x264 - MP3 - ...

  • Category Movies
  • Type Bollywood
  • Language Hindi
  • Total size 705.6 MB
  • Uploaded By Mafiaking
  • Downloads 12310
  • Last checked 1 week ago
  • Date uploaded 2 weeks ago
  • Seeders 89
  • Leechers 56

Infohash : 0D9E7914CC4BC0BA33C35ED6492CCE2108E24FEE










Quote:







Ratings: 6.8/10

Genere: Comedy

General
Complete name : Poster Boys (2017) - 1CD - DesiPreDVD-Rip - Hindi - x264 - MP3 - Mafiaking - M2Tv.mkv
Format : Matroska
Format version : Version 4 / Version 2
File size : 700 MiB
Duration : 2 h 5 min
Overall bit rate : 778 kb/s
Movie name : Poster Boys (2017) - 1CD - DesiPreDVD-Rip - Hindi - x264 - MP3 - Mafiaking - M2Tv

Video
ID : 1
Format : AVC
Format profile : [email protected]
Codec ID : V_MPEG4/ISO/AVC
Duration : 2 h 5 min
Bit rate : 696 kb/s
Width : 640 pixels
Height : 256 pixels
Frame rate : 25.000 FPS
Stream size : 627 MiB (89%)
Title : Mafiaking
Language : Hindi
Default : Yes
Forced : No

Audio
ID : 2
Format : MPEG Audio
Codec ID/Hint : MP3
Duration : 2 h 5 min
Bit rate : 80.0 kb/s
Channel(s) : 2 channels
Stream size : 72.0 MiB (10%)
Title : Mafiaking
Language : Hindi
Default : Yes
Forced : No

SAMPLE WITH IN TORRENT





**To View Image In Full Size Click on Thumbnails**

Files:

Poster Boys (2017) - 1CD - DesiPDVD-Rip - Hindi - x264 - MP3 - Mafiaking - M2Tv
  • Poster Boys (2017) - 1CD - DesiPDVD-Rip - Hindi - x264 - MP3 - Mafiaking - M2Tv.mkv (700.4 MB)
  • SaMple.mkv (5.2 MB)

Comments

Code:

  • udp://tracker.coppersurfer.tk:6969/announce
  • udp://thetracker.org:80/announce
  • udp://tracker.leechers-paradise.org:6969/announce
  • udp://eddie4.nl:6969/announce
  • udp://zer0day.ch:1337/announce
  • udp://tracker.sktorrent.net:6969/announce
  • udp://9.rarbg.me:2710/announce
  • udp://9.rarbg.to:2710/announce
  • udp://torrent.gresille.org:80/announce
  • udp://tracker.aletorrenty.pl:2710/announce
  • udp://tracker.piratepublic.com:1337/announce
  • udp://tracker.opentrackr.org:1337/announce
  • udp://explodie.org:6969/announce
  • udp://p4p.arenabg.ch:1337/announce